Мы – монстры (2017) на телефон планшет


1 1 1 1 1 Рейтинг 4.21 /14
Мы – монстры (2017)

Оригинальное название: Happy Family
Срана: Великобритания, Германия
Режиссёр: Хольгер Таппе

Краткое содержание:
Герои мультфильма "Мы – монстры" - семейство Уишбоун. Все они как один, считают себя самыми несчастными людьми в мире. Каждый день, они как и другие люди сталкиваются с жизненными проблемами. Только для всех это обычные жизненные дела, а члены несчастной семейки считают это вселенской трагедией.
Готовясь к празднику Хэллоуин, Уишбоуны занялись поиском праздничных костюмов и случайно натыкаются на магазин, владельцем которого являлся сам граф Дракула.
Посмеявшись над тем, каким именем ей представился владелец магазина, Эмма даже не представляла, какую беду навлекла на своё семейство.
Решив отомстить обидчикам, Дракула приказывает ведьме превратить Эмму в вампира, главу семейства, Фрэнка в Франкенштейна, а их детей Фей и Макс превратить в мумию и оборотня. Так как заклятие могло подействовать только на глубоко несчастных людей, то и расколдоваться они смогут лишь тогда, когда станут полностью счастливыми.

Продолжительность: 01:26:18
Перевод: дублированный
Качество: HDRip

Видео: 320x240, 256 kb/s, 24 k/s
Звук: stereo , 128 kb/s, 44,1 khz
Размер: 246 MB

Mediainfo

Формат : MPEG-4
Профиль формата : Base Media
Идентификатор кодека : isom (isom/iso2/avc1/mp41)
Размер файла : 246 Мбайт
Продолжительность : 1 ч. 28 м.
Общий поток : 388 Кбит/сек
Программа кодирования : Lavf57.41.100

Видео
Идентификатор : 1
Формат : AVC
Формат/Информация : Advanced Video Codec
Профиль формата : High@L1.3
Настройки формата : CABAC / 4 Ref Frames
Параметр CABAC формата : Да
Параметр RefFrames формата : 4 кадра
Идентификатор кодека : avc1
Идентификатор кодека/Информация : Advanced Video Coding
Продолжительность : 1 ч. 28 м.
Битрейт : 256 Кбит/сек
Ширина : 320 пикселей
Высота : 240 пикселей
Соотношение сторон : 2,35:1
Режим частоты кадров : Постоянный
Частота кадров : 23,976 (23976/1000) кадра/сек
Цветовое пространство : YUV
Субдискретизация насыщенности : 4:2:0
Битовая глубина : 8 бит
Тип развёртки : Прогрессивная
Бит/(Пиксели*Кадры) : 0.139
Размер потока : 160 Мбайт (65%)
Библиотека кодирования : x264 core 148

Аудио
Идентификатор : 2
Формат : AAC
Формат/Информация : Advanced Audio Codec
Профиль формата : LC
Идентификатор кодека : mp4a-40-2
Продолжительность : 1 ч. 28 м.
Вид битрейта : Постоянный
Битрейт : 129 Кбит/сек
Каналы : 2 канала
Расположение каналов : Front: L R
Частота : 44,1 КГц
Частота кадров : 43,066 кадра/сек (1024 SPF)
Метод сжатия : С потерями
Размер потока : 82,1 Мбайт (33%)
Default : Да
AlternateGroup/String : 1


Мы – монстры (2017) адаптирован для скачивания и просмотра на телефонах, планшетах, смартфонах андроид

Смотреть онлайн Мы – монстры (2017) на андроид

Видео


Трейлер

Смотреть онлайн Мы – монстры (2017)
Плеер

Смотреть онлайн Мы – монстры (2017)

Скачать фильм Мы – монстры (2017) на телефон планшет смартфон андроид



СКАЧАТЬ ФИЛЬМ


НАЖАВ НА ЛЮБУЮ УДОБНУЮ ДЛЯ ВАС КНОПОЧКУ, ВЫ ПОМОГАЕТЕ САЙТУ РАЗВИВАТЬСЯ И НАПОЛНЯТЬСЯ НОВЫМИ ФИЛЬМАМИ МУЛЬТФИЛЬМАМИ И СЕРИАЛАМИ

У вас недостаточно прав для добавления комментариев.

Мы – монстры (2017)
Мы – монстры (2017) скачать на телефон планшет андроид на 7ba ru, anwap ru, anwap ru org, kape cc https://drop.me/aq36JK
Мы – монстры (2017) | | 2017-10-31 19:39:22 | | мультфильмы | http://cinemaphone.ru/images/logo.png | Герои мультфильма "Мы – монстры" - семейство Уишбоун. Все они как один, считают себя самыми несчастными людьми в мире. | Эмили Уотсон, Джейсон Айзекс, Ник Фрост, Джессика Браун-Финдли, Селия Имри, Кэтрин Тейт, Ethan Rouse, Ивэн Бэйли, Эмма Тейт, Джессика МакДональд